[MagicStar] 追踪者游戏 / チェイサーゲーム EP06 [WEBDL] [1080p] [AMZN]【生】

windmoe62022-10-15

HD 1080p from Prime Video.
Use CBR bitrate mode.

We are planning to upload all prime video japan Dramas and Movies, we need your Support!

Support Us

Ali (Zhifubao / QR code): https://i.ibb.co/FWV2ggm/1660626347125.png

General Unique ID                      : 287771305358082857590101981704790586765 (0xD87EBCC710035A6A54B30CB247B9B58D) Complete name                  : Chaser.Game.EP06.1080p.AMZN.WEB-DL.DDP2.0.H.264-MagicStar.mkv Format                         : Matroska Format version                 : Version 4 File size                      : 1.63 GiB Duration                       : 23 min 59 s Overall bit rate mode          : Constant Overall bit rate               : 9 720 kb/s Encoded date                   : UTC 2022-10-14 23:32:54 Writing application            : mkvmerge v50.0.0 ('Awakenings') 64-bit Writing library                : libebml v1.4.0 + libmatroska v1.6.2 Cover                          : Yes Attachments                    : cover.png  Video ID                             : 1 Format                         : AVC Format/Info                    : Advanced Video Codec Format profile                 : [email protected] Format settings                : CABAC / 4 Ref Frames Format settings, CABAC         : Yes Format settings, Reference fra : 4 frames Codec ID                       : V_MPEG4/ISO/AVC Duration                       : 23 min 59 s Bit rate mode                  : Constant Bit rate                       : 9 493 kb/s Nominal bit rate               : 10 000 kb/s Width                          : 1 920 pixels Height                         : 1 080 pixels Display aspect ratio           : 16:9 Frame rate mode                : Constant Frame rate                     : 29.970 (29970/1000) FPS Original frame rate            : 29.970 (30000/1001) FPS Color space                    : YUV Chroma subsampling             : 4:2:0 Bit depth                      : 8 bits Scan type                      : Progressive Bits/(Pixel*Frame)             : 0.153 Stream size                    : 1.59 GiB (98%) Default                        : Yes Forced                         : No Color range                    : Limited Color primaries                : BT.709 Transfer characteristics       : BT.709 Matrix coefficients            : BT.709  Audio ID                             : 2 Format                         : E-AC-3 Format/Info                    : Enhanced AC-3 Commercial name                : Dolby Digital Plus Codec ID                       : A_EAC3 Duration                       : 23 min 59 s Bit rate mode                  : Constant Bit rate                       : 224 kb/s Channel(s)                     : 2 channels Channel layout                 : L R Sampling rate                  : 48.0 kHz Frame rate                     : 31.250 FPS (1536 SPF) Compression mode               : Lossy Stream size                    : 38.5 MiB (2%) Language                       : Japanese Service kind                   : Complete Main Default                        : Yes Forced                         : No

站长信息

风萌导航

一个优秀的ACG元宇宙导航站

38299文章总数
1页面总数
17分类总数
1111标签总数
0评论总数
122431浏览总数
热门标签
随机文章
最新文章